Torrent Details

Apaharan (2005) Hindi 720p Bluray x264 AC3 5 1 ESub-Sun George (Requested)
Apaharan (2005) Hindi 720p Bluray x264 AC3 5 1 ESub-Sun George (Requested)
Size2.6 GB in 4 files
ReleasesAdded on 10.01.2019 at 13:40 into the Movies category by Unknown.
Status4 seeds & 5 peers.
Hashdbe9b6525626493caf6732be454d76e77fedd6e7
Rating
  • YourBT Visitors

Status This torrent has been verified.
*

Torrent Description

Apaharan (2005) Hindi 720p Bluray x264 AC3 5.1 ESub-Sun George (Requested)




http://www.imdb.com/title/tt0451631/







For Direct Links Visit: http://FilmMaza.Org











========================
Source : Hon3yhd (Thanks)
General
Format : Matroska
Format version : Version 4 / Version 2
File size : 2.61 GiB
Duration : 2 h 49 min
Overall bit rate : 2 207 kb/s
Movie name : Apaharan (2005) Hindi 720p Bluray x264 AC3 5.1 ESub-Sun George (Requested) ========================
Video
ID : 1
Format : AVC
Format/Info : Advanced Video Codec
Format profile : [email protected]
Format settings : CABAC / 4 Ref Frames
Format settings, CABAC : Yes
Format settings, RefFrames : 4 frames
Codec ID : V_MPEG4/ISO/AVC
Duration : 2 h 48 min
Bit rate : 1 826 kb/s
Width : 1 280 pixels
Height : 544 pixels
Display aspect ratio : 2.35:1
Frame rate mode : Variable
Frame rate : 24.000 FPS
Color space : YUV
Chroma subsampling : 4:2:0
Bit depth : 8 bits
Scan type : Progressive
Bits/(Pixel*Frame) : 0.109
Stream size : 2.15 GiB (82%)
Title : Sun George ========================
Audio
ID : 2
Format : AC-3
Format/Info : Audio Coding 3
Codec ID : A_AC3
Duration : 2 h 49 min
Bit rate mode : Constant
Bit rate : 384 kb/s
Channel(s) : 6 channels
Channel positions : Front: L C R, Side: L R, LFE
Sampling rate : 48.0 kHz
Frame rate : 31.250 FPS (1536 SPF)
Bit depth : 16 bits
Compression mode : Lossy
Stream size : 466 MiB (17%)
Title : Sun George
Language : Hindi
Service kind : Complete Main
Default : Yes
Forced : No

Text
ID : 3
Format : PGS
Muxing mode : zlib
Codec ID : S_HDMV/PGS
Codec ID/Info : Picture based subtitle format used on BDs/HD-DVDs
Duration : 2 h 39 min
Bit rate : 28.7 kb/s
Count of elements : 4302
Stream size : 32.9 MiB (1%)
Title : Sun George
Language : English
Default : Yes
Forced : Yes

Menu
00:00:00.000 : en:Chapter 1
00:00:06.625 : en:Chapter 2
00:35:07.791 : en:Chapter 3
00:50:19.166 : en:Chapter 4
01:16:39.833 : en:Chapter 5
01:21:29.666 : en:Chapter 6
01:22:12.458 : en:Chapter 7
01:33:37.666 : en:Chapter 8
01:33:42.500 : en:Chapter 9
01:44:35.166 : en:Chapter 10
02:36:02.041 : en:Chapter 11













Similar Torrents

No Similar Torrents Found

If we find similar torrents, we normally show them right here. We couldn't find anything for "".

Torrent Trackers

TRACKER URLSEEDSPEERS
Onlineudp://tracker.open-internet.nl:6969/announce44
Onlineudp://tracker.coppersurfer.tk:6969/announce35
Onlineudp://tracker.pirateparty.gr:6969/announce32
Onlineudp://tracker.opentrackr.org:1337/announce23
Onlineudp://mgtracker.org:6969/announce22
Onlineudp://tracker.zer0day.to:1337/announce01

Files inside this torrent

FILENAMESIZE
icon INFO.NFO55 B
icon Apaharan (2005) Hindi 720p Bluray x264 AC3 5.1 ESub-Sun George (Requested).mkv2.6 GB
icon Sample Apaharan (2005) Hindi 720p Bluray x264 AC3 5.1 ESub-Sun George (Requested).mkv19.4 MB
icon FilmMaza.Org – Download Movies For Free.url121 B